<?xml version="1.0" standalone="no"?>
<!DOCTYPE svg PUBLIC "-//W3C//DTD SVG 1.1//EN" "http://www.w3.org/Graphics/SVG/1.1/DTD/svg11.dtd" >
<svg xmlns="http://www.w3.org/2000/svg">
<metadata></metadata>
<defs>
<font id="compressaregular" horiz-adv-x="1024" >
<font-face units-per-em="2048" ascent="1761" descent="-287" />
<missing-glyph horiz-adv-x="436" />
<glyph unicode="&#xfb01;" horiz-adv-x="684" d="M6 950v160h53v53q0 66 8.5 97t34.5 59q25 26 55.5 36.5t82.5 10.5h157v-158h-69q-40 0 -51 -9t-11 -42v-45h131v-162h-131v-950h-207v950h-53zM422 0v1112h207v-1112h-207zM422 1196v170h207v-170h-207z" />
<glyph unicode="&#xfb02;" horiz-adv-x="681" d="M6 950v160h53v53q0 66 8.5 97t34.5 59q25 26 55.5 36.5t82.5 10.5h157v-158h-69q-40 0 -51 -9t-11 -42v-45h131v-162h-131v-950h-207v950h-53zM424 0v1366h205v-1366h-205z" />
<glyph unicode="&#xfb03;" horiz-adv-x="1054" d="M6 950v162h53v53q0 66 8.5 97t34.5 57q25 26 55.5 36.5t82.5 10.5h155v-156h-67q-40 0 -51 -9.5t-11 -41.5v-45l129 -2h35v53q0 66 8.5 97t34.5 57q25 26 55 36.5t82 10.5h158v-156h-70q-39 0 -50 -9t-11 -42v-45h131v-164h-131v-950h-207v950h-164v-950h-207v950h-53z M795 0v1112h206v-1112h-206zM795 1196v170h206v-170h-206z" />
<glyph unicode="&#xfb04;" horiz-adv-x="1052" d="M6 950v162h53v53q0 66 8.5 97t34.5 57q25 26 55.5 36.5t82.5 10.5h155v-156h-67q-40 0 -51 -9.5t-11 -41.5v-45l129 -2h35v53q0 66 8.5 97t34.5 57q25 26 55 36.5t82 10.5h158v-156h-70q-39 0 -50 -9t-11 -42v-45h131v-164h-131v-950h-207v950h-164v-950h-207v950h-53z M795 0v1366h204v-1366h-204z" />
<glyph horiz-adv-x="2048" />
<glyph horiz-adv-x="2048" />
<glyph unicode="&#xd;" horiz-adv-x="2048" />
<glyph unicode=" "  horiz-adv-x="436" />
<glyph unicode="&#x09;" horiz-adv-x="436" />
<glyph unicode="&#xa0;" horiz-adv-x="436" />
<glyph unicode="!" horiz-adv-x="477" d="M123 0v223h231v-223h-231zM123 1366h231l-30 -1051h-172z" />
<glyph unicode="&#x22;" horiz-adv-x="761" d="M82 1366h240l-39 -547h-162zM438 1366h240l-39 -547h-162z" />
<glyph unicode="#" horiz-adv-x="1271" d="M137 459l15 106h241l29 215h-240l15 107h241l49 356h111l-51 -356h227l49 356h111l-49 -356h250l-17 -107h-250l-28 -215h250l-17 -106h-250l-53 -385h-111l56 385h-228l-53 -385h-110l53 385h-240zM502 565h227l31 215h-228z" />
<glyph unicode="$" horiz-adv-x="647" d="M61 231v324h226v-317q0 -60 39 -60t39 62v305q0 29 -8 40t-44 33l-168 107q-49 31 -66.5 70.5t-17.5 119.5v254q0 95 44.5 142.5t136.5 50.5v111h168v-111q95 -8 136.5 -55t41.5 -150v-268h-223v231q0 64 -39 64t-39 -66l-2 -184v-8l6 -52q5 -12 39 -34l157 -99 q63 -40 82 -75t19 -111v-324q0 -69 -9 -106t-32 -66q-24 -30 -53 -42t-84 -13v-108h-168v108q-49 2 -76.5 11t-52.5 32q-31 31 -41.5 68t-10.5 116z" />
<glyph unicode="%" horiz-adv-x="1062" d="M47 793v442q0 54 6.5 77t26.5 38q18 11 44 14.5t95 3.5q84 0 111.5 -5t44.5 -24q15 -15 19.5 -36.5t4.5 -69.5v-440q0 -69 -32 -90t-140 -21q-63 0 -95.5 3t-53.5 16t-26 33t-5 59zM174 0l569 1366h146l-570 -1366h-145zM188 815q0 -23 7.5 -31t27.5 -8q22 0 28.5 7 t6.5 32v428q0 19 -8 27t-27 8t-27 -8t-8 -27v-428zM664 111v442q0 54 6 76t26 37q18 11 44.5 14.5t95.5 3.5q84 0 111 -5t44 -22q15 -17 20 -38t5 -68v-440q0 -71 -32 -92t-140 -21q-84 0 -119.5 8t-48 30t-12.5 75zM805 131q0 -23 7.5 -31t27.5 -8q21 0 27.5 7.5t6.5 31.5 v430q0 17 -8 25t-26 8q-35 0 -35 -33v-430z" />
<glyph unicode="&#x26;" horiz-adv-x="686" d="M47 193v362q0 75 20.5 112.5t77.5 65.5q-57 31 -77.5 68.5t-20.5 109.5v219q0 82 10 119t39 66q54 51 146 51h264v-180h-158q-41 0 -55 -13t-14 -49v-215q0 -59 11.5 -70.5t69.5 -11.5v248h220v-248h90v-188h-90v-639h-220q-137 0 -183.5 10.5t-84.5 48.5q-45 48 -45 134 zM279 254q0 -43 10.5 -56.5t44.5 -13.5h26v455q-53 0 -67 -10.5t-14 -48.5v-326z" />
<glyph unicode="'" horiz-adv-x="411" d="M82 1366h246l-39 -547h-168z" />
<glyph unicode="(" horiz-adv-x="530" d="M150 12v1086q0 98 12 139t53 76q70 63 154 57l39 -2v-186q-32 -5 -43 -20t-11 -58v-1090q0 -52 9.5 -68.5t44.5 -25.5v-182q-16 -2 -37 -2q-117 0 -176 71q-27 33 -36 74t-9 131z" />
<glyph unicode=")" horiz-adv-x="530" d="M123 -76q32 4 42.5 19.5t10.5 58.5v1090q0 53 -9 69t-44 25v182q16 2 37 2q116 0 176 -72q27 -33 36 -73.5t9 -130.5v-1086q0 -97 -12.5 -138.5t-53.5 -76.5q-69 -63 -153 -57l-39 2v186z" />
<glyph unicode="*" horiz-adv-x="731" d="M96 1120l33 105l186 -64v205h105v-205l184 64l33 -105l-184 -63l114 -166l-84 -66l-116 166l-115 -166l-86 66l117 166z" />
<glyph unicode="+" d="M37 657v111h418v401h114v-401h420v-111h-420v-401h-114v401h-418z" />
<glyph unicode="," horiz-adv-x="335" d="M82 0v240h172v-252q0 -96 -40.5 -141.5t-131.5 -49.5v103q32 8 46.5 25.5t14.5 51.5v23h-61z" />
<glyph unicode="-" horiz-adv-x="247" d="M0 481v189h248v-189h-248z" />
<glyph unicode="." horiz-adv-x="335" d="M82 0v236h172v-236h-172z" />
<glyph unicode="/" horiz-adv-x="585" d="M14 -260l324 1626h186l-323 -1626h-187z" />
<glyph unicode="0" horiz-adv-x="647" d="M51 219v885q0 104 13.5 150.5t50.5 76.5q29 22 76.5 30.5t140.5 8.5q96 0 142.5 -12t74.5 -43q28 -32 37.5 -75t9.5 -138v-883q0 -119 -49 -168q-32 -34 -77 -44.5t-155 -10.5q-99 0 -141.5 10t-75.5 43q-29 29 -38 62.5t-9 107.5zM283 1122l2 -860q0 -43 8.5 -61.5 t28.5 -18.5q23 0 33 18.5t10 61.5v858q0 38 -8.5 54t-30.5 16q-23 0 -33 -16t-10 -52z" />
<glyph unicode="1" horiz-adv-x="647" d="M100 1001v191q80 9 126 53.5t53 120.5h186v-1366h-234v1001h-131z" />
<glyph unicode="2" horiz-adv-x="649" d="M53 0v211l297 625q19 43 19 47l-2 39v194q0 74 -41 74q-23 0 -32 -15.5t-9 -54.5v-225h-232v260q0 70 12 105t44 63q34 31 68 39t128 8q120 0 171.5 -12.5t78.5 -48.5q26 -32 35.5 -67.5t9.5 -100.5v-27q0 -42 -1 -97.5t-1 -60.5q0 -91 -7.5 -127.5t-39.5 -105.5 l-256 -539h301v-184h-543z" />
<glyph unicode="3" horiz-adv-x="649" d="M49 221v354h234v-315q0 -76 41 -76q23 0 30.5 16.5t7.5 61.5v303q0 50 -11.5 67t-45.5 17h-72v176l70 2q39 2 49 15t10 63v201q0 47 -8 65.5t-30 18.5q-41 0 -41 -72v-223h-234v217q0 96 10.5 137.5t44.5 73.5q29 29 72 38t154 9q98 0 140.5 -10.5t74.5 -42.5 q28 -29 38.5 -68t10.5 -114v-213q0 -80 -19.5 -116.5t-80.5 -70.5q58 -29 79 -66.5t21 -111.5v-334q0 -130 -52.5 -178.5t-193.5 -48.5q-177 0 -238 46t-61 179z" />
<glyph unicode="4" horiz-adv-x="647" d="M29 299v178l186 889h322v-889h71v-178h-71v-299h-218v299h-290zM238 477h90v172q0 99 16 475h-25l-4 -30l-14 -152q-25 -210 -35 -272z" />
<glyph unicode="5" horiz-adv-x="649" d="M55 219v354h232v-313q0 -44 9 -61t32 -17q25 0 34 17t9 63v486q0 34 -9.5 48.5t-31.5 14.5q-21 0 -30 -14.5t-11 -48.5l-2 -43h-232v661h545v-184h-313v-244q61 61 135 61q84 0 135 -67q25 -32 34 -70t9 -108v-537q0 -127 -51 -172q-31 -29 -77 -39t-148 -10 q-87 0 -129 8t-74 31q-36 27 -51 68.5t-15 115.5z" />
<glyph unicode="6" horiz-adv-x="649" d="M53 238v866q0 101 13 148.5t49 76.5q29 25 70.5 33t136.5 8q101 0 144 -8.5t73 -36.5q34 -31 45.5 -69t11.5 -115v-248h-231v227q0 68 -41 68q-22 0 -30.5 -15.5t-8.5 -56.5v-334q40 31 68 42.5t63 11.5q77 0 129 -58q29 -32 40 -74.5t11 -121.5v-357q0 -73 -11.5 -112 t-41.5 -68q-31 -29 -72.5 -39t-136.5 -10q-108 0 -154.5 9.5t-75.5 37.5q-31 29 -41 68t-10 127zM285 264q0 -47 8 -63.5t31 -16.5q26 0 33.5 14.5t7.5 65.5v328q0 57 -39 57q-41 0 -41 -57v-328z" />
<glyph unicode="7" horiz-adv-x="649" d="M55 0l295 1184h-272v182h495v-229l-284 -1137h-234z" />
<glyph unicode="8" horiz-adv-x="649" d="M53 231v295q0 95 19 133t82 72q-58 28 -79.5 67.5t-21.5 119.5v219q0 73 10.5 111t38.5 67q34 35 76 45t158 10q92 0 134 -9.5t71 -37.5q32 -29 43.5 -69.5t11.5 -120.5v-234q0 -62 -23 -102t-75 -66q63 -32 80.5 -71t17.5 -144v-299q0 -133 -55.5 -177t-223.5 -44 q-101 0 -147.5 13t-77.5 48q-22 26 -30.5 64t-8.5 110zM285 231q0 -53 39 -53q19 0 30 14t11 39v328q0 41 -8.5 57.5t-30.5 16.5q-25 0 -33 -15.5t-8 -60.5v-326zM285 889q0 -26 11 -42t28 -16q19 0 30 16t11 42v227q0 37 -9 52.5t-32 15.5q-39 0 -39 -68v-227z" />
<glyph unicode="9" horiz-adv-x="649" d="M53 205v274h230v-213q0 -50 8 -66t33 -16q23 0 32 17t9 63v328q-34 -31 -61 -43t-62 -12q-38 0 -77 16.5t-65 44.5q-47 50 -47 160v385q0 75 10 110t39 64q35 35 76.5 44t167.5 9q90 0 132 -11.5t73 -45.5q27 -27 36 -61t9 -107v-940q0 -105 -51 -156q-32 -32 -78 -42.5 t-156 -10.5q-92 0 -132.5 10t-72.5 39q-29 28 -41 64.5t-12 95.5zM283 784q0 -32 10 -46.5t33 -14.5q39 0 39 61v342q0 64 -41 64t-41 -66v-340z" />
<glyph unicode=":" horiz-adv-x="335" d="M82 0v236h172v-236h-172zM82 713v235h172v-235h-172z" />
<glyph unicode=";" horiz-adv-x="335" d="M82 0v240h172v-252q0 -96 -40.5 -141.5t-131.5 -49.5v103q32 8 46.5 25.5t14.5 51.5v23h-61zM82 713v235h172v-235h-172z" />
<glyph unicode="&#x3c;" d="M68 594v188l886 439v-222l-651 -311l649 -313l2 -221z" />
<glyph unicode="=" d="M37 510v108h952v-108h-952zM37 807v108h952v-108h-952z" />
<glyph unicode="&#x3e;" d="M70 154v223l649 311l-647 313l-2 220l886 -439v-188z" />
<glyph unicode="?" horiz-adv-x="636" d="M41 895v217q0 95 7 132t30 65q31 35 78.5 48t146.5 13q171 0 225 -48.5t54 -203.5v-196q0 -48 -4.5 -71t-18.5 -50l-110 -199q-16 -29 -19.5 -42.5t-3.5 -47.5v-197h-231v236q0 67 20 106l115 209q20 39 20 80v182q0 62 -41 62q-39 0 -39 -60v-235h-229zM195 0v223h231 v-223h-231z" />
<glyph unicode="@" horiz-adv-x="1400" d="M51 553q0 188 91 345t249 248t346 91q168 0 309 -74.5t222.5 -203.5t81.5 -283q0 -237 -179 -381q-130 -102 -251 -102q-56 0 -93 27.5t-49 76.5q-59 -56 -108.5 -80t-106.5 -24q-100 0 -162.5 69.5t-62.5 183.5q0 116 55.5 226t146 178t185.5 68q129 0 188 -121l33 88 h117l-164 -482q-18 -55 -18 -84q0 -28 19 -44.5t50 -16.5q44 0 96.5 27.5t98.5 74.5q125 131 125 310q0 136 -70.5 249.5t-192.5 178.5t-268 65q-125 0 -237 -47.5t-192 -128.5t-126.5 -194t-46.5 -240q0 -166 78.5 -305t215.5 -219t300 -80q154 0 292.5 77.5t211.5 206.5 h88q-73 -161 -238.5 -260.5t-357.5 -99.5q-185 0 -340.5 90.5t-245.5 247t-90 342.5zM465 410q0 -69 31.5 -110.5t85.5 -41.5q75 0 135 66q45 48 84 155l47 129q22 62 22 109q0 54 -33.5 92.5t-80.5 38.5q-68 0 -136 -65t-111.5 -167.5t-43.5 -205.5z" />
<glyph unicode="A" horiz-adv-x="577" d="M0 0l115 1366h313l150 -1366h-232l-20 283h-101l-22 -283h-203zM236 465h79l-16 213q-4 53 -7.5 180.5t-8.5 220.5l-2 39h-25q-4 -70 -8 -313q-4 -98 -4 -119z" />
<glyph unicode="B" horiz-adv-x="657" d="M61 0v1366h277q104 0 145 -10t74 -43q30 -30 39.5 -67t9.5 -120v-217q0 -71 -20 -109t-76 -71q55 -23 75.5 -61.5t20.5 -120.5v-334q0 -119 -51 -166t-180 -47h-314zM295 182q10 -2 27 -2q34 0 43.5 14t9.5 64v297q0 54 -11 68t-51 14h-18v-455zM295 825q10 -2 24 -2 q34 0 45 13.5t11 56.5v203q0 55 -11 70.5t-49 15.5h-20v-357z" />
<glyph unicode="C" horiz-adv-x="641" d="M51 244v876q0 88 12 130t46 73q31 28 73.5 37.5t141.5 9.5q104 0 147.5 -9t73.5 -38q29 -28 41 -67t12 -107v-258h-231v225q0 41 -8.5 56.5t-30.5 15.5q-24 0 -33.5 -15.5t-9.5 -54.5v-868q0 -37 8.5 -52.5t30.5 -15.5q43 0 43 66v321h231v-366q0 -119 -57 -163t-211 -44 q-110 0 -164.5 16.5t-83.5 59.5q-19 26 -25 60.5t-6 111.5z" />
<glyph unicode="D" horiz-adv-x="657" d="M61 0v1366h291q90 0 133 -11t74 -42q29 -29 38 -67t9 -128v-878q0 -80 -9 -118.5t-38 -66.5q-30 -33 -70.5 -44t-132.5 -11h-295zM295 182h20q38 0 50 14t12 60v846q0 52 -13.5 68t-56.5 16h-12v-1004z" />
<glyph unicode="E" horiz-adv-x="475" d="M61 0v1366h379v-186h-147v-344h147v-183h-147v-471h147v-182h-379z" />
<glyph unicode="F" horiz-adv-x="456" d="M61 0v1366h375v-186h-143v-344h143v-183h-143v-653h-232z" />
<glyph unicode="G" horiz-adv-x="641" d="M51 215v907q0 96 11.5 135t48.5 68q31 25 79.5 35t135.5 10q86 0 132 -10t74 -33q38 -32 50 -71.5t12 -137.5v-225h-225v221q0 74 -43 74t-43 -74v-864q0 -72 43 -72t43 74v268h-56v185h281v-705h-80l-47 98q-38 -63 -77.5 -82.5t-127.5 -19.5q-108 0 -162 51 q-29 29 -39 63t-10 105z" />
<glyph unicode="H" horiz-adv-x="665" d="M61 0v1366h232v-526h80v526h231v-1366h-231v655h-80v-655h-232z" />
<glyph unicode="I" horiz-adv-x="348" d="M57 0v1366h234v-1366h-234z" />
<glyph unicode="J" horiz-adv-x="585" d="M10 229v340h213v-321q0 -39 9 -54.5t32 -15.5q39 0 39 70v1118h232v-1133q0 -82 -10.5 -119.5t-41.5 -68.5q-32 -32 -72 -40.5t-153 -8.5q-87 0 -122.5 9t-69.5 40t-45 67t-11 117z" />
<glyph unicode="K" horiz-adv-x="634" d="M61 0v1366h230v-221q0 -74 -12 -314h26q3 97 33 277l41 258h217l-123 -594l152 -772h-230l-53 328q-29 190 -37 321h-29q15 -205 15 -340v-309h-230z" />
<glyph unicode="L" horiz-adv-x="442" d="M61 0v1366h230v-1182h145v-184h-375z" />
<glyph unicode="M" horiz-adv-x="899" d="M61 0v1366h318l35 -350q18 -189 18 -354q0 -37 -2 -64h29v59q0 131 22 375l33 334h324v-1366h-203v457q0 164 12 368h-29q-1 -9 -2 -19.5t-1.5 -15.5t-0.5 -8l-6 -125q0 -13 -16 -145l-66 -512h-155l-64 475q-28 218 -28 350h-27q0 -120 6 -241q1 -36 3.5 -88t2.5 -68 v-428h-203z" />
<glyph unicode="N" horiz-adv-x="702" d="M61 0v1366h242l80 -383q15 -72 30 -199t15 -184q0 -30 -2 -53h27l-2 43l-2 121q0 35 -6.5 132t-6.5 122v401h205v-1366h-244l-71 381q-54 282 -54 414v26h-24q20 -340 20 -479v-342h-207z" />
<glyph unicode="O" horiz-adv-x="645" d="M51 250v880q0 84 13 124.5t49 70.5q32 28 77 36.5t152 8.5q92 0 135 -11t72 -42q27 -29 37 -65.5t10 -104.5v-897q0 -92 -10 -132t-39 -69q-31 -31 -73 -42t-130 -11q-108 0 -153.5 7.5t-73.5 29.5q-39 33 -52.5 77t-13.5 140zM285 250q0 -68 41 -68t41 68v862 q0 40 -10 58t-33 18q-39 0 -39 -72v-866z" />
<glyph unicode="P" horiz-adv-x="634" d="M61 0v1366h314q82 0 115.5 -9t62.5 -40q32 -32 42.5 -71.5t10.5 -123.5v-405q0 -82 -10 -119.5t-41 -69.5q-30 -31 -62 -40t-118 -9h-80v-479h-234zM295 662h31q29 0 39 14.5t10 54.5v381q0 40 -10.5 55t-36.5 15h-33v-520z" />
<glyph unicode="Q" horiz-adv-x="643" d="M51 223v875q0 101 9 143t38 72q31 35 71.5 46t141.5 11q113 0 151.5 -7.5t72.5 -35.5q38 -34 48.5 -74t10.5 -151v-879q0 -79 -9 -112.5t-38 -61.5q-26 -26 -52 -36t-71 -13q55 -14 141 -14h21l-82 -142q-137 32 -258 156q-59 2 -90.5 13t-59.5 40q-26 29 -35.5 65 t-9.5 105zM283 252q0 -72 39 -72q40 0 40 72v860q0 40 -8 56t-30 16q-24 0 -32.5 -15.5t-8.5 -58.5v-858z" />
<glyph unicode="R" horiz-adv-x="659" d="M61 0v1366h312q75 0 112 -9t66 -34q34 -31 45.5 -76t11.5 -147v-244q0 -83 -18.5 -117.5t-81.5 -66.5q54 -19 77 -57.5t23 -110.5v-504h-235v510q0 41 -12 55.5t-46 14.5h-20v-580h-234zM295 768l18 -2q38 0 49 16t11 74v246q0 47 -10 63.5t-39 16.5h-29v-414z" />
<glyph unicode="S" horiz-adv-x="624" d="M41 199v358h231v-305q0 -70 39 -70q23 0 32 15t9 53v258v46t-6 25t-13 17.5t-28 17.5l-145 86q-72 43 -95.5 83.5t-23.5 123.5v232q0 93 13 129.5t55 66.5q29 22 66.5 28.5t125.5 6.5q114 0 161 -12.5t81 -50.5q24 -27 32.5 -61t8.5 -99v-258h-232v225q0 72 -41 72 q-39 0 -39 -68v-198q0 -33 6 -46t27 -26l191 -119q51 -32 69.5 -67.5t18.5 -104.5v-360q0 -98 -54 -152q-29 -31 -69.5 -40t-147.5 -9q-108 0 -148.5 9.5t-72.5 41.5q-30 31 -40.5 62.5t-10.5 89.5z" />
<glyph unicode="T" horiz-adv-x="501" d="M6 1178v188h488v-188h-127v-1178h-232v1178h-129z" />
<glyph unicode="U" horiz-adv-x="651" d="M53 223v1143h232v-1122q0 -68 39 -68q41 0 41 64v1126h233v-1137q0 -78 -10 -114t-39 -68q-31 -32 -71.5 -41.5t-153.5 -9.5q-105 0 -147.5 9.5t-74.5 41.5q-28 28 -38.5 66t-10.5 110z" />
<glyph unicode="V" horiz-adv-x="563" d="M0 1366h229l35 -526q13 -219 15 -465h24q1 37 1.5 97t1 78t1.5 54.5t2.5 62t3.5 64.5t6 94l37 541h207l-119 -1366h-303z" />
<glyph unicode="W" horiz-adv-x="929" d="M0 1366h227l27 -408q4 -49 5.5 -98.5t1.5 -100t1 -71.5q4 -102 4 -108v-64h25v62q0 208 12 372l35 416h278l33 -401q13 -175 13 -424v-25h24l2 115q2 127 4 195t5 101t3 34l27 405h203l-119 -1366h-250l-49 438q-18 153 -20 432h-25v-34q0 -177 -23 -402l-47 -434h-260z " />
<glyph unicode="X" horiz-adv-x="565" d="M0 0l104 737l-88 629h217l27 -213q23 -200 23 -276v-39h22q3 122 27 309l28 219h205l-94 -629l94 -737h-211l-35 332q-13 130 -18 315h-22q0 -127 -19 -321l-35 -326h-225z" />
<glyph unicode="Y" horiz-adv-x="532" d="M-14 1366h227l27 -244q5 -44 9 -80.5t6.5 -61.5t4 -51t2.5 -38.5t1.5 -34.5t0.5 -27.5v-29.5v-29h23q10 234 24 356l29 240h205l-150 -819v-547h-237v547z" />
<glyph unicode="Z" horiz-adv-x="499" d="M6 0v168l236 1008h-215v190h452v-180l-237 -1002h237v-184h-473z" />
<glyph unicode="[" horiz-adv-x="462" d="M96 -260v1626h258v-182h-53v-1262h53v-182h-258z" />
<glyph unicode="\" horiz-adv-x="585" d="M63 1366h187l323 -1626h-186z" />
<glyph unicode="]" horiz-adv-x="462" d="M109 -78h53v1262h-53v182h258v-1626h-258v182z" />
<glyph unicode="^" d="M49 745l338 625h250l336 -625h-203l-260 476l-258 -476h-203z" />
<glyph unicode="_" d="M0 -135h1024v-137h-1024v137z" />
<glyph unicode="`" d="M385 1386h199l53 -210h-160z" />
<glyph unicode="a" horiz-adv-x="565" d="M39 201v207q0 71 16.5 101t77.5 71l178 118v207q0 23 -10 37t-25 14t-25.5 -12.5t-10.5 -32.5v-180h-201v201q0 52 9 82t32 55q26 28 61 37.5t109 9.5q104 0 147 -8t68 -33q31 -31 39 -69.5t8 -153.5v-852h-201v47q-54 -51 -116 -51q-65 0 -111 43q-28 26 -36.5 58 t-8.5 104zM240 211q0 -57 34 -57q37 0 37 53v307q-54 -33 -62.5 -46t-8.5 -58v-199z" />
<glyph unicode="b" horiz-adv-x="573" d="M53 0v1366h205v-315q34 38 59 51.5t62 13.5q75 0 111 -48.5t36 -149.5v-738q0 -55 -8 -84t-31 -53q-41 -47 -110 -47q-37 0 -63.5 13.5t-55.5 45.5v-55h-205zM258 203q0 -53 31 -53q30 0 30 53v700q0 30 -6.5 42.5t-23.5 12.5q-31 0 -31 -57v-698z" />
<glyph unicode="c" horiz-adv-x="559" d="M47 178v768q0 88 53 135q25 21 58.5 28t107.5 7q98 0 134.5 -6.5t62.5 -28.5q32 -26 44.5 -58t12.5 -85v-303h-205v272q0 51 -32 51q-31 0 -31 -51v-690q0 -61 31 -61q18 0 25 13t7 46v242h205v-275q0 -57 -10.5 -90.5t-36.5 -56.5t-66 -31t-133 -8q-84 0 -119 8.5 t-63 36.5q-25 25 -35 55.5t-10 81.5z" />
<glyph unicode="d" horiz-adv-x="575" d="M47 217v670q0 71 4.5 102t18.5 55q19 33 52.5 52.5t72.5 19.5q35 0 61.5 -14t60.5 -51v315h205l2 -1366h-207l2 55q-35 -34 -61.5 -46.5t-60.5 -12.5q-75 0 -119 57q-19 23 -25 56.5t-6 107.5zM254 203q0 -30 7 -41.5t24 -11.5q32 0 32 53v706q0 49 -32 49q-31 0 -31 -47 v-708z" />
<glyph unicode="e" horiz-adv-x="559" d="M47 180v774q0 99 78 142q36 20 158 20q81 0 115 -6t59 -23q63 -46 63 -145v-430h-268v-309q0 -49 29 -49q32 0 32 47v207h207v-232q0 -49 -8.5 -76t-30.5 -51q-28 -31 -64.5 -42t-111.5 -11q-147 0 -194 27q-34 25 -49 60.5t-15 96.5zM252 674h61v225q0 30 -6.5 42.5 t-23.5 12.5q-31 0 -31 -53v-227z" />
<glyph unicode="f" horiz-adv-x="370" d="M6 950v160h53v53q0 66 8.5 97t34.5 59q25 26 55.5 36.5t82.5 10.5h157v-158h-69q-40 0 -51 -9t-11 -42v-45h131v-162h-131v-950h-207v950h-53z" />
<glyph unicode="g" horiz-adv-x="575" d="M47 -98h201q48 0 57.5 9t9.5 58v90q-48 -63 -120 -63q-75 0 -119 57q-17 23 -23 51.5t-6 85.5v736q0 101 41 145q45 45 107 45q36 0 62.5 -13.5t57.5 -47.5v57h207v-1186q0 -98 -42.5 -142t-137.5 -44h-295v162zM252 203q0 -53 33 -53q30 0 30 51v706q0 51 -32 51 q-31 0 -31 -51v-704z" />
<glyph unicode="h" horiz-adv-x="581" d="M53 0v1366h205v-311q35 35 61 48t60 13q72 0 115 -53q34 -43 34 -176v-887h-206v897q0 34 -7 49t-24 15q-15 0 -24 -16t-9 -42v-903h-205z" />
<glyph unicode="i" horiz-adv-x="313" d="M53 0v1112h207v-1112h-207zM53 1196v170h207v-170h-207z" />
<glyph unicode="j" horiz-adv-x="311" d="M-82 -100h78q34 0 45.5 14t11.5 57v1141h205v-1196q0 -89 -40.5 -132.5t-125.5 -43.5h-174v160zM53 1196v170h205v-170h-205z" />
<glyph unicode="k" horiz-adv-x="546" d="M53 0v1366h207v-322q0 -174 -12 -378h22q22 191 41 282l33 164h211l-129 -494l129 -618h-211l-43 266q-27 183 -31 287h-22q12 -211 12 -348v-205h-207z" />
<glyph unicode="l" horiz-adv-x="311" d="M53 0v1366h205v-1366h-205z" />
<glyph unicode="m" horiz-adv-x="849" d="M53 0v1112h205v-59q57 63 127 63q76 0 131 -72q55 66 127 66q34 0 67 -15t52 -40q20 -25 27.5 -61t7.5 -111v-883h-207v907q0 45 -31 45t-31 -49v-903h-206v905q0 51 -31 51q-33 0 -33 -47v-909h-205z" />
<glyph unicode="n" horiz-adv-x="581" d="M53 0v1112h205v-63q32 38 58.5 52.5t62.5 14.5q78 0 121 -59q17 -23 22.5 -53.5t5.5 -92.5v-911h-204v905q0 53 -35 53q-31 0 -31 -53v-905h-205z" />
<glyph unicode="o" horiz-adv-x="567" d="M47 190v713q0 75 10 110.5t39 61.5q28 25 67 33t128 8q83 0 118.5 -8.5t63.5 -34.5q30 -28 39.5 -61.5t9.5 -112.5l-2 -709q0 -66 -11.5 -99.5t-43.5 -59.5q-23 -20 -60.5 -27.5t-113.5 -7.5q-86 0 -128.5 9t-68.5 34q-28 26 -37.5 57t-9.5 94zM252 209q0 -53 33 -53 q17 0 23.5 12.5t6.5 40.5v688q0 32 -7.5 45.5t-24.5 13.5t-24 -13t-7 -44v-690z" />
<glyph unicode="p" horiz-adv-x="571" d="M53 -260v1372h205v-61q54 65 123 65q33 0 65 -15.5t50 -41.5q17 -23 23.5 -57.5t6.5 -102.5v-719q0 -100 -41 -141q-43 -43 -106 -43q-69 0 -121 61v-317h-205zM258 205q0 -29 7 -41t26 -12q31 0 31 53v706q0 23 -9 36.5t-24 13.5q-31 0 -31 -50v-706z" />
<glyph unicode="q" horiz-adv-x="571" d="M47 195v700q0 70 6 103t21 57q19 28 52.5 44.5t68.5 16.5q66 0 120 -65v61h205v-1372h-205v319q-49 -63 -120 -63q-69 0 -109 49q-23 26 -31 56.5t-8 93.5zM252 205q0 -51 31 -51q32 0 32 51v702q0 54 -34 54q-29 0 -29 -54v-702z" />
<glyph unicode="r" horiz-adv-x="514" d="M53 0v1112h205v-65q40 69 111 69q67 0 110 -59q29 -39 29 -121v-281h-189v254q0 47 -30 47q-31 0 -31 -45v-911h-205z" />
<glyph unicode="s" horiz-adv-x="538" d="M33 223v187h203v-203q0 -53 34 -53q35 0 35 51v184l-2 43q0 4 -0.5 6.5t-1.5 5.5t-2 5t-4 4.5t-4.5 4t-7 4.5t-9 5.5t-12 7t-14.5 8.5l-123 72q-56 32 -74 67t-18 111v191q0 63 13.5 99.5t47.5 61.5q24 19 55.5 25t96.5 6q128 0 168 -12q92 -35 92 -170v-201h-201v170 q0 53 -35 53q-34 0 -34 -51v-151q0 -43 6.5 -54.5t44.5 -33.5l125 -70q60 -34 82 -76q9 -19 10.5 -34.5t1.5 -86.5v-196q0 -75 -11.5 -111.5t-45.5 -62.5q-41 -33 -185 -33q-79 0 -119.5 9.5t-64.5 33.5q-29 29 -38 63t-9 121z" />
<glyph unicode="t" horiz-adv-x="362" d="M6 950v162h53v254h207v-254h90v-162h-90v-725q0 -44 7.5 -54.5t41.5 -10.5h41v-160h-104q-60 0 -91.5 8t-54.5 31q-30 27 -38.5 60t-8.5 120v731h-53z" />
<glyph unicode="u" horiz-adv-x="581" d="M53 188v924h207v-907q0 -53 31 -53q33 0 33 49v911h204v-1112h-204v57q-52 -61 -121 -61q-35 0 -67.5 15t-51.5 40q-31 42 -31 137z" />
<glyph unicode="v" horiz-adv-x="495" d="M-14 1112h215l18 -285q14 -205 19 -501h22q7 320 19 501l18 285h215l-141 -1112h-244z" />
<glyph unicode="w" horiz-adv-x="768" d="M-14 1112h215l16 -252q14 -237 14 -424v-69h25v69q0 149 18 420l19 256h180l23 -262q2 -12 6 -148l6 -141q4 -68 4 -141q0 -30 -2 -53h25v75q0 116 18 420l16 250h215l-137 -1112h-209l-22 233q-19 189 -19 322v35h-24q0 -52 -2 -62l-2 -155q0 -28 -11 -140l-22 -233 h-219z" />
<glyph unicode="x" horiz-adv-x="501" d="M-20 0l118 596l-82 516h201l10 -127q2 -21 9 -194l2 -54q2 -6 2 -59h24q0 100 17 315l10 119h192l-77 -516l118 -596h-215l-26 211q-16 125 -19 305h-24v-45q0 -136 -17 -270l-24 -201h-219z" />
<glyph unicode="y" horiz-adv-x="491" d="M-33 -104h90q55 0 70.5 12.5t15.5 58.5q0 29 -6 64l-153 1081h217l18 -324q10 -193 17 -456h26v186q0 173 8 289l23 305h215l-162 -1167q-9 -65 -19 -95t-30 -55q-44 -55 -147 -55h-183v156z" />
<glyph unicode="z" horiz-adv-x="491" d="M6 0v199l277 747h-238v166h440v-190l-274 -758h274v-164h-479z" />
<glyph unicode="{" d="M244 420v174q63 17 89.5 58.5t26.5 121.5v336q0 154 76 221q41 35 101.5 47.5t193.5 12.5q25 0 45 -2v-201q-119 -1 -157.5 -36.5t-38.5 -141.5v-271q0 -98 -25 -149t-90 -88q64 -37 89.5 -91t25.5 -151v-270q0 -111 38 -147.5t158 -37.5v-190h-45q-140 0 -198.5 12.5 t-98.5 50.5q-74 71 -74 238v311q0 89 -26 132.5t-90 60.5z" />
<glyph unicode="|" d="M399 -342v1708h224v-1708h-224z" />
<glyph unicode="}" d="M248 -184q118 1 157 37t39 141v272q0 97 25 149t90 89q-64 37 -89.5 90t-25.5 151v269q0 113 -38 148.5t-158 35.5v191q18 2 43 2q140 0 199.5 -13t99.5 -51q74 -71 74 -240v-311q0 -88 26 -130.5t90 -59.5v-174q-63 -17 -89.5 -59t-26.5 -124v-333q0 -155 -76 -222 q-41 -35 -100.5 -47t-194.5 -12h-45v201z" />
<glyph unicode="~" horiz-adv-x="1366" d="M193 1255q111 252 288 252q76 0 236 -75q84 -40 115 -51t61 -11q50 0 90.5 33t81.5 108l113 -92q-56 -129 -130 -188.5t-180 -59.5q-39 0 -81 15t-154 69q-110 52 -160 52q-47 0 -87 -33.5t-81 -108.5z" />
<glyph unicode="&#xa1;" horiz-adv-x="477" d="M123 -252l31 1051h172l28 -1051h-231zM123 891v221h231v-221h-231z" />
<glyph unicode="&#xa2;" horiz-adv-x="647" d="M88 317v768q0 78 39.5 121.5t114.5 46.5v109h164v-109q82 -4 118.5 -46.5t36.5 -131.5v-301h-205v273q0 49 -30 49q-33 0 -33 -49v-691q0 -59 33 -59q17 0 23.5 12.5t6.5 44.5v242h205v-277q0 -92 -35 -133t-120 -49v-110h-164v110q-80 5 -117 48t-37 132z" />
<glyph unicode="&#xa3;" horiz-adv-x="647" d="M6 637v188h86v277q0 103 15 154t53 79q30 20 72 27.5t133 7.5q97 0 142.5 -13.5t76.5 -51.5q22 -26 29.5 -61t7.5 -111v-242h-226v227q0 70 -39 70q-41 0 -41 -70v-291h211v-190h-211v-455h23q36 0 46.5 14.5t10.5 65.5v303h226v-350q0 -117 -46.5 -166t-156.5 -49h-326 v637h-86z" />
<glyph unicode="&#xa4;" horiz-adv-x="1431" d="M115 1178l116 116l203 -200q93 54 150.5 73t130.5 19q75 0 131.5 -18.5t144.5 -73.5l203 200l117 -116l-199 -197q94 -138 94 -287q0 -71 -18 -127.5t-70 -146.5l197 -197l-115 -119l-199 197q-137 -94 -276 -94q-137 0 -295 94l-197 -195l-116 115l194 199 q-90 131 -90 280q0 71 20 131.5t74 147.5zM418 698q0 -123 87 -211t210 -88t210 87.5t87 211.5q0 123 -86.5 211t-206.5 88q-126 0 -213.5 -87t-87.5 -212z" />
<glyph unicode="&#xa5;" horiz-adv-x="647" d="M47 1366h225l27 -219q21 -181 23 -379h26q2 172 29 387l26 211h199l-84 -469h84v-154h-108l-17 -81h125v-150h-153v-512h-220v512h-163v150h131l-17 81h-114v154h84z" />
<glyph unicode="&#xa6;" d="M399 313h224v-655h-224v655zM399 666v700h224v-700h-224z" />
<glyph unicode="&#xa7;" horiz-adv-x="649" d="M55 -96v198h219v-120q0 -72 52 -72q25 0 35 16.5t10 57.5v79q0 48 -56 74q-22 12 -47 26.5t-55 31t-47 26.5l-41 23q-38 22 -54 49.5t-16 73.5v366q0 50 10.5 73.5t43.5 47.5q-36 36 -45 58t-9 75v217q0 53 11 81t40 50q26 19 74 26t150 7q158 0 211 -31.5t53 -124.5 v-208h-223v122q0 32 -10 45t-35 13q-28 0 -40 -14t-12 -46v-67q0 -48 10 -63t62 -42l139 -73q78 -41 93.5 -66.5t15.5 -110.5v-321q0 -65 -10.5 -93.5t-42.5 -51.5q32 -24 42.5 -51.5t10.5 -82.5v-202q0 -46 -15.5 -83.5t-41.5 -52.5q-27 -17 -70.5 -22.5t-138.5 -5.5 q-100 0 -149 7t-75 26q-29 22 -39 48.5t-10 86.5zM274 461q0 -43 4 -51.5t29 -22.5l37 -20q10 -7 16 -7q8 0 9.5 7.5t1.5 46.5v223q0 36 -7 53.5t-24 26.5l-29 14q-18 10 -22 10q-9 0 -12 -10.5t-3 -44.5v-225z" />
<glyph unicode="&#xa8;" d="M297 1196v170h178v-170h-178zM551 1196v170h178v-170h-178z" />
<glyph unicode="&#xa9;" horiz-adv-x="1591" d="M90 682q0 195 95 358.5t260 258t362 94.5q187 0 347.5 -96t254.5 -260t94 -355q0 -115 -35.5 -223.5t-101 -195.5t-152.5 -152.5t-194.5 -101.5t-222.5 -36q-191 0 -354 95.5t-258 259t-95 354.5zM201 680q0 -122 47.5 -234t127 -193.5t190 -130t231.5 -48.5 q162 0 299.5 81.5t217 221.5t79.5 305q0 122 -47 234.5t-126 194.5t-187.5 130.5t-227.5 48.5q-166 0 -305 -80.5t-219 -221t-80 -308.5zM412 686q0 184 110 300t285 116q141 0 241.5 -81t110.5 -204h-106q-19 77 -85 121.5t-161 44.5q-117 0 -187.5 -82t-70.5 -217 q0 -134 69.5 -214.5t186.5 -80.5q107 0 175.5 58t82.5 159h106q-10 -152 -111 -244t-255 -92q-175 0 -283 115t-108 301z" />
<glyph unicode="&#xaa;" horiz-adv-x="710" d="M57 600v100h613v-100h-613zM66 963q0 24 7 47.5t20 43.5t30 33q33 25 65.5 34t149.5 22q11 2 53 11.5t49 12.5q23 10 23 45q0 27 -14.5 48t-42.5 33t-64 12q-115 0 -127 -107h-121q6 100 67.5 148.5t184.5 48.5q104 0 170 -47q7 -5 15 -14t16 -21t15.5 -25t13 -26.5 t8.5 -24.5q4 -13 5 -53.5t1 -225.5q0 -113 41 -143h-148q-8 19 -16 80q-58 -61 -93.5 -78.5t-101.5 -17.5q-95 0 -150.5 44.5t-55.5 119.5zM182 969q0 -40 30 -64t81 -24q81 0 126.5 49t45.5 141v29q-25 -14 -43 -19l-39 -6l-72 -6q-129 -12 -129 -100z" />
<glyph unicode="&#xab;" horiz-adv-x="591" d="M55 575l72 469h158l-72 -469l72 -473h-158zM272 575l72 469h160l-74 -469l74 -473h-160z" />
<glyph unicode="&#xac;" d="M68 385v195h886v-580h-217v385h-669z" />
<glyph unicode="&#xad;" horiz-adv-x="247" d="M0 481v189h248v-189h-248z" />
<glyph unicode="&#xae;" horiz-adv-x="1591" d="M90 682q0 195 95 358.5t260 258t362 94.5q187 0 347.5 -96t254.5 -260t94 -355q0 -115 -35.5 -223.5t-101 -195.5t-152.5 -152.5t-194.5 -101.5t-222.5 -36q-191 0 -354 95.5t-258 259t-95 354.5zM201 680q0 -122 47.5 -234t127 -193.5t190 -130t231.5 -48.5 q162 0 299.5 81.5t217 221.5t79.5 305q0 122 -47 234.5t-126 194.5t-187.5 130.5t-227.5 48.5q-166 0 -305 -80.5t-219 -221t-80 -308.5zM496 283v798h335q138 0 211.5 -57t73.5 -164q0 -135 -139 -194q75 -28 99.5 -78t29.5 -178q2 -90 20 -127h-131q-15 25 -22 153 q-3 69 -15 103t-38 53q-45 31 -136 31h-153v-340h-135zM631 707h162q188 0 188 145q0 72 -42 106.5t-130 34.5h-178v-286z" />
<glyph unicode="&#xaf;" d="M297 1255v138h432v-138h-432z" />
<glyph unicode="&#xb0;" d="M209 1063q0 126 89 214.5t216 88.5q126 0 213.5 -88.5t87.5 -216.5q0 -123 -89 -212t-212 -89q-127 0 -216 88.5t-89 214.5zM305 1063q0 -86 61 -147.5t146 -61.5q83 0 145 61t62 144q0 89 -60.5 151t-148.5 62q-83 0 -144 -62t-61 -147z" />
<glyph unicode="&#xb1;" d="M37 86v111h952v-111h-952zM37 676v110h418v402h114v-402h420v-110h-420v-391h-114v391h-418z" />
<glyph unicode="&#xb2;" horiz-adv-x="471" d="M49 547v127l203 373q9 15 10.5 21.5t1.5 29.5v116q0 43 -28 43q-27 0 -27 -40v-136h-160v156q0 42 7.5 62.5t29.5 37.5q23 19 48 24t87 5q84 0 119 -7.5t55 -29.5q18 -18 24.5 -39.5t6.5 -60.5v-17q0 -23 -1 -55.5t-1 -38.5q0 -55 -5 -77.5t-26 -61.5l-178 -322h209v-110 h-375z" />
<glyph unicode="&#xb3;" horiz-adv-x="471" d="M43 680v211h160v-189q0 -25 6.5 -35t23.5 -10q15 0 21 10.5t6 37.5v180q0 29 -8 39t-33 10h-49v106h47q28 0 35.5 8t7.5 39v119q0 30 -6 40.5t-23 10.5q-28 0 -28 -43v-133h-160v131q0 50 6 74t21 43q22 23 52 30t107 7q73 0 103 -6.5t53 -26.5q20 -17 27.5 -39.5 t7.5 -68.5v-127q0 -47 -13.5 -69t-56.5 -44q40 -17 55 -39.5t15 -66.5v-199q0 -75 -36 -105t-128 -30q-128 0 -170.5 27t-42.5 108z" />
<glyph unicode="&#xb4;" d="M385 1176l55 210h197l-92 -210h-160z" />
<glyph unicode="&#xb5;" d="M88 -344v1327h191v-539q0 -94 10.5 -139t42.5 -84q73 -86 174 -86q109 0 175.5 89t66.5 235v524h190v-983h-190v168q-75 -193 -244 -193q-75 0 -128 33.5t-97 108.5v-461h-191z" />
<glyph unicode="&#xb6;" horiz-adv-x="1189" d="M78 1004q0 100 45.5 182.5t126.5 126.5q97 53 278 53h500v-90h-113v-1507h-112v1507h-207v-1507h-113v878q-62 0 -94 4.5t-76 18.5q-110 37 -172.5 125.5t-62.5 208.5z" />
<glyph unicode="&#xb7;" horiz-adv-x="364" d="M96 455v235h172v-235h-172z" />
<glyph unicode="&#xb8;" d="M436 -78h154v-162q0 -60 -36 -88.5t-118 -31.5v71q43 8 43 43v15h-43v153z" />
<glyph unicode="&#xb9;" horiz-adv-x="471" d="M80 1145v112q55 6 86.5 33t36.5 72h129v-815h-162v598h-90z" />
<glyph unicode="&#xba;" horiz-adv-x="710" d="M49 600v100h613v-100h-613zM63 1096q0 134 82.5 216.5t216.5 82.5q125 0 205 -84.5t80 -216.5q0 -130 -81.5 -212.5t-209.5 -82.5q-129 0 -211 83t-82 214zM195 1096q0 -95 42.5 -149t116.5 -54q75 0 118.5 54.5t43.5 146.5q0 95 -42.5 150.5t-115.5 55.5 q-76 0 -119.5 -54.5t-43.5 -149.5z" />
<glyph unicode="&#xbb;" horiz-adv-x="591" d="M88 102l74 469l-74 473h160l71 -473l-71 -469h-160zM307 102l72 469l-72 473h158l72 -473l-72 -469h-158z" />
<glyph unicode="&#xbc;" horiz-adv-x="1245" d="M80 1145v112q55 6 86.5 33t36.5 72h129v-815h-162v598h-90zM264 0l572 1366h143l-569 -1366h-146zM807 180v103l127 536h225v-530h47v-109h-47v-180h-151v180h-201zM938 283h80v131q0 163 8 262h-18q-9 -128 -29.5 -241t-40.5 -152z" />
<glyph unicode="&#xbd;" horiz-adv-x="1245" d="M80 1145v112q55 6 86.5 33t36.5 72h129v-815h-162v598h-90zM264 0l572 1366h143l-569 -1366h-146zM823 0v127l205 373q9 15 10.5 21.5t1.5 29.5v117q0 43 -28 43q-15 0 -22 -9t-7 -32v-135h-160v155q0 43 7.5 63.5t29.5 37.5q23 18 47.5 23t89.5 5q86 0 119 -7t53 -30 q18 -18 24.5 -39.5t6.5 -60.5v-16q0 -24 -1 -57t-1 -38q0 -56 -5 -79t-26 -60l-178 -321h209v-111h-375z" />
<glyph unicode="&#xbe;" horiz-adv-x="1245" d="M43 680v211h160v-189q0 -25 6.5 -35t23.5 -10q15 0 21 10.5t6 37.5v180q0 29 -8 39t-33 10h-49v106h47q28 0 35.5 8t7.5 39v119q0 30 -6 40.5t-23 10.5q-28 0 -28 -43v-133h-160v131q0 50 6 74t21 43q22 23 52 30t107 7q73 0 103 -6.5t53 -26.5q20 -17 27.5 -39.5 t7.5 -68.5v-127q0 -47 -13.5 -69t-56.5 -44q40 -17 55 -39.5t15 -66.5v-199q0 -75 -36 -105t-128 -30q-128 0 -170.5 27t-42.5 108zM266 0l570 1366h145l-569 -1366h-146zM807 180v103l127 536h225v-530h49v-109h-49v-180h-151v180h-201zM938 283h80v131q0 163 8 262h-18 q-9 -128 -29.5 -241t-40.5 -152z" />
<glyph unicode="&#xbf;" horiz-adv-x="636" d="M55 -6v196q0 49 5 71.5t20 49.5l110 201q15 27 19 41.5t4 48.5v197h231v-238q0 -68 -20 -104l-117 -211q-20 -39 -20 -80v-182q0 -62 41 -62t41 60v235h229v-217q0 -94 -7 -130.5t-32 -64.5q-29 -35 -76.5 -48t-146.5 -13q-88 0 -140 10t-85 39.5t-44.5 75.5t-11.5 125z M213 889v223h231v-223h-231z" />
<glyph unicode="&#xc0;" horiz-adv-x="577" d="M0 0l115 1366h313l150 -1366h-232l-20 283h-101l-22 -283h-203zM106 1653h199l53 -211h-159zM236 465h79l-16 213q-4 53 -7.5 180.5t-8.5 220.5l-2 39h-25q-4 -70 -8 -313q-4 -98 -4 -119z" />
<glyph unicode="&#xc1;" horiz-adv-x="577" d="M0 0l115 1366h313l150 -1366h-232l-20 283h-101l-22 -283h-203zM195 1442l55 211h196l-92 -211h-159zM236 465h79l-16 213q-4 53 -7.5 180.5t-8.5 220.5l-2 39h-25q-4 -70 -8 -313q-4 -98 -4 -119z" />
<glyph unicode="&#xc2;" horiz-adv-x="577" d="M0 0l115 1366h313l150 -1366h-232l-20 283h-101l-22 -283h-203zM68 1436l96 223h244l104 -223h-174l-49 125l-47 -125h-174zM236 465h79l-16 213q-4 53 -7.5 180.5t-8.5 220.5l-2 39h-25q-4 -70 -8 -313q-4 -98 -4 -119z" />
<glyph unicode="&#xc3;" horiz-adv-x="577" d="M0 0l115 1366h313l150 -1366h-232l-20 283h-101l-22 -283h-203zM70 1456v31q0 66 28.5 103.5t79.5 37.5q20 0 74.5 -7t69.5 -11q16 -4 22 -4q18 0 21 32h139l2 -39q3 -59 -28 -95t-79 -36q-19 0 -133 21q-20 4 -28 4q-29 0 -29 -37h-139zM236 465h79l-16 213 q-4 53 -7.5 180.5t-8.5 220.5l-2 39h-25q-4 -70 -8 -313q-4 -98 -4 -119z" />
<glyph unicode="&#xc4;" horiz-adv-x="577" d="M0 0l115 1366h313l150 -1366h-232l-20 283h-101l-22 -283h-203zM74 1448v170h178v-170h-178zM236 465h79l-16 213q-4 53 -7.5 180.5t-8.5 220.5l-2 39h-25q-4 -70 -8 -313q-4 -98 -4 -119zM328 1448v170h178v-170h-178z" />
<glyph unicode="&#xc5;" horiz-adv-x="577" d="M0 0l115 1366h313l150 -1366h-232l-20 283h-101l-22 -283h-203zM125 1606q0 63 47.5 109t112.5 46q68 0 118 -49t50 -115t-48 -114.5t-114 -48.5t-116 51.5t-50 120.5zM207 1602q0 -34 25 -60t57 -26q33 0 57.5 24t24.5 57q0 32 -25 57t-59 25q-32 0 -56 -23t-24 -54z M236 465h79l-16 213q-4 53 -7.5 180.5t-8.5 220.5l-2 39h-25q-4 -70 -8 -313q-4 -98 -4 -119z" />
<glyph unicode="&#xc6;" horiz-adv-x="716" d="M0 0l135 1366h547v-186h-150v-346h150v-183h-150v-471h150v-180h-369v285h-82l-24 -285h-207zM236 467h77v309q0 14 5.5 168t5.5 223v37h-27l-2 -39l-12 -141q-2 -24 -7 -88t-14 -170z" />
<glyph unicode="&#xc7;" horiz-adv-x="638" d="M51 242v880q0 104 15.5 147t62.5 72q28 17 69 23t138 6q127 0 174 -27q48 -26 67 -69.5t19 -126.5v-256h-234v225q0 70 -38 70q-41 0 -41 -68v-870q0 -37 8.5 -52.5t30.5 -15.5q40 0 40 68v321h234v-366q0 -139 -94 -183q-49 -22 -187 -22q-142 0 -192 33q-50 32 -66 88 q-6 27 -6 123zM244 -63h155v-177q0 -67 -36.5 -98.5t-118.5 -34.5v72q43 8 43 53v17h-43v168z" />
<glyph unicode="&#xc8;" horiz-adv-x="475" d="M61 0v1366h379v-186h-147v-344h147v-183h-147v-471h147v-182h-379zM78 1653h198l54 -211h-160z" />
<glyph unicode="&#xc9;" horiz-adv-x="475" d="M61 0v1366h379v-186h-147v-344h147v-183h-147v-471h147v-182h-379zM160 1442l55 211h197l-93 -211h-159z" />
<glyph unicode="&#xca;" horiz-adv-x="475" d="M16 1436l97 223h243l105 -223h-174l-49 125l-48 -125h-174zM61 0v1366h381v-186h-149v-344h149v-183h-149v-471h149v-182h-381z" />
<glyph unicode="&#xcb;" horiz-adv-x="475" d="M23 1448v170h178v-170h-178zM61 0v1366h381v-186h-149v-344h149v-183h-149v-471h149v-182h-381zM276 1448v170h179v-170h-179z" />
<glyph unicode="&#xcc;" horiz-adv-x="350" d="M8 1653h199l53 -211h-160zM57 0v1366h234v-1366h-234z" />
<glyph unicode="&#xcd;" horiz-adv-x="350" d="M57 0v1366h234v-1366h-234zM98 1442l56 211h196l-92 -211h-160z" />
<glyph unicode="&#xce;" horiz-adv-x="348" d="M-47 1436l96 223h244l104 -223h-174l-49 125l-47 -125h-174zM57 0v1366h234v-1366h-234z" />
<glyph unicode="&#xcf;" horiz-adv-x="348" d="M-20 1448v170h159v-170h-159zM57 0v1366h234v-1366h-234zM209 1448v170h160v-170h-160z" />
<glyph unicode="&#xd0;" horiz-adv-x="659" d="M16 668v166h45v532h293q86 0 130.5 -11.5t76.5 -43.5q31 -29 40 -66t9 -131v-876q0 -80 -10 -120t-37 -67q-29 -29 -71.5 -40t-131.5 -11h-299v668h-45zM295 178q54 0 69 13.5t15 62.5v844q0 51 -11 66.5t-46 15.5q-17 0 -27 -2v-344h43v-166h-43v-490z" />
<glyph unicode="&#xd1;" horiz-adv-x="702" d="M61 0v1366h242l80 -383q15 -72 30 -199t15 -184q0 -30 -2 -53h27l-2 43l-2 121q0 35 -6.5 132t-6.5 122v401h205v-1366h-244l-71 381q-54 282 -54 414v26h-24q20 -340 20 -479v-342h-207zM133 1456v31q0 66 29 103.5t80 37.5q20 0 74 -7t69 -11q16 -4 23 -4q17 0 20 32 h139l2 -39q3 -59 -27.5 -95t-78.5 -36q-19 0 -133 21q-20 4 -29 4q-29 0 -29 -37h-139z" />
<glyph unicode="&#xd2;" horiz-adv-x="645" d="M51 250v880q0 84 13 124.5t49 70.5q32 28 77 36.5t152 8.5q92 0 135 -11t72 -42q27 -29 37 -65.5t10 -104.5v-897q0 -92 -10 -132t-39 -69q-31 -31 -73 -42t-130 -11q-108 0 -153.5 7.5t-73.5 29.5q-39 33 -52.5 77t-13.5 140zM170 1653h199l53 -211h-160zM285 250 q0 -68 41 -68t41 68v862q0 40 -10 58t-33 18q-39 0 -39 -72v-866z" />
<glyph unicode="&#xd3;" horiz-adv-x="645" d="M51 250v880q0 84 13 124.5t49 70.5q32 28 77 36.5t152 8.5q92 0 135 -11t72 -42q27 -29 37 -65.5t10 -104.5v-897q0 -92 -10 -132t-39 -69q-31 -31 -73 -42t-130 -11q-108 0 -153.5 7.5t-73.5 29.5q-39 33 -52.5 77t-13.5 140zM240 1442l55 211h197l-93 -211h-159z M285 250q0 -68 41 -68t41 68v862q0 40 -10 58t-33 18q-39 0 -39 -72v-866z" />
<glyph unicode="&#xd4;" horiz-adv-x="645" d="M51 250v880q0 84 13 124.5t49 70.5q32 28 77 36.5t152 8.5q92 0 135 -11t72 -42q27 -29 37 -65.5t10 -104.5v-897q0 -92 -10 -132t-39 -69q-31 -31 -73 -42t-130 -11q-108 0 -153.5 7.5t-73.5 29.5q-39 33 -52.5 77t-13.5 140zM102 1436l97 223h243l105 -223h-174 l-49 125l-48 -125h-174zM285 250q0 -68 41 -68t41 68v862q0 40 -10 58t-33 18q-39 0 -39 -72v-866z" />
<glyph unicode="&#xd5;" horiz-adv-x="645" d="M51 250v880q0 84 13 124.5t49 70.5q32 28 77 36.5t152 8.5q92 0 135 -11t72 -42q27 -29 37 -65.5t10 -104.5v-897q0 -92 -10 -132t-39 -69q-31 -31 -73 -42t-130 -11q-108 0 -153.5 7.5t-73.5 29.5q-39 33 -52.5 77t-13.5 140zM104 1456v31q0 66 29 103.5t80 37.5 q20 0 74 -7t69 -11q16 -4 23 -4q17 0 20 32h140l2 -39q3 -59 -28 -95t-79 -36q-19 0 -133 21q-20 4 -29 4q-28 0 -28 -37h-140zM285 250q0 -68 41 -68t41 68v862q0 40 -10 58t-33 18q-39 0 -39 -72v-866z" />
<glyph unicode="&#xd6;" horiz-adv-x="645" d="M51 250v880q0 84 13 124.5t49 70.5q32 28 77 36.5t152 8.5q92 0 135 -11t72 -42q27 -29 37 -65.5t10 -104.5v-897q0 -92 -10 -132t-39 -69q-31 -31 -73 -42t-130 -11q-108 0 -153.5 7.5t-73.5 29.5q-39 33 -52.5 77t-13.5 140zM109 1448v170h178v-170h-178zM285 250 q0 -68 41 -68t41 68v862q0 40 -10 58t-33 18q-39 0 -39 -72v-866zM362 1448v170h179v-170h-179z" />
<glyph unicode="&#xd7;" d="M115 395l319 318l-317 315l80 80l315 -317l317 319l80 -82l-319 -317l319 -316l-80 -80l-315 320l-317 -320z" />
<glyph unicode="&#xd8;" horiz-adv-x="641" d="M-4 -37l55 178q-2 20 -2 41l2 66v905q0 86 28.5 135t88.5 68q46 14 190 14q55 0 88 -8l33 96l162 -51l-59 -182q8 -37 8 -125v-840q0 -96 -9.5 -138t-37.5 -73q-29 -31 -79.5 -43t-150.5 -12q-57 0 -125 6l-30 -90zM279 248q0 -72 45 -72q20 0 27 15t7 57v876q0 34 -8 48 t-28 14q-25 0 -34 -16t-9 -58v-864z" />
<glyph unicode="&#xd9;" horiz-adv-x="651" d="M53 223v1143h232v-1122q0 -68 39 -68q41 0 41 64v1126h233v-1137q0 -78 -10 -114t-39 -68q-31 -32 -71.5 -41.5t-153.5 -9.5q-105 0 -147.5 9.5t-74.5 41.5q-28 28 -38.5 66t-10.5 110zM168 1653h199l53 -211h-160z" />
<glyph unicode="&#xda;" horiz-adv-x="651" d="M53 223v1143h232v-1122q0 -68 39 -68q41 0 41 64v1126h233v-1137q0 -78 -10 -114t-39 -68q-31 -32 -71.5 -41.5t-153.5 -9.5q-105 0 -147.5 9.5t-74.5 41.5q-28 28 -38.5 66t-10.5 110zM240 1442l55 211h197l-93 -211h-159z" />
<glyph unicode="&#xdb;" horiz-adv-x="651" d="M53 223v1143h232v-1122q0 -68 39 -68q41 0 41 64v1126h233v-1137q0 -78 -10 -114t-39 -68q-31 -32 -71.5 -41.5t-153.5 -9.5q-105 0 -147.5 9.5t-74.5 41.5q-28 28 -38.5 66t-10.5 110zM104 1436l97 223h243l105 -223h-174l-49 125l-47 -125h-175z" />
<glyph unicode="&#xdc;" horiz-adv-x="651" d="M53 223v1143h232v-1122q0 -68 39 -68q41 0 41 64v1126h233v-1137q0 -78 -10 -114t-39 -68q-31 -32 -71.5 -41.5t-153.5 -9.5q-105 0 -147.5 9.5t-74.5 41.5q-28 28 -38.5 66t-10.5 110zM111 1448v170h178v-170h-178zM365 1448v170h178v-170h-178z" />
<glyph unicode="&#xdd;" horiz-adv-x="532" d="M-14 1366h227l27 -244q5 -44 9 -80.5t6.5 -61.5t4 -51t2.5 -38.5t1.5 -34.5t0.5 -27.5v-29.5v-29h23q10 234 24 356l29 240h205l-150 -819v-547h-237v547zM188 1442l56 211h196l-92 -211h-160z" />
<glyph unicode="&#xde;" horiz-adv-x="647" d="M68 0v1366h233v-192h80q81 0 114 -9.5t64 -40.5q32 -32 42.5 -70t10.5 -122v-406q0 -82 -10 -120t-41 -70q-30 -31 -62 -40t-118 -9h-80v-287h-233zM301 471h31q29 0 39 15t10 55v381q0 39 -10.5 54t-36.5 15h-33v-520z" />
<glyph unicode="&#xdf;" horiz-adv-x="579" d="M53 0v1141q0 73 8 107t33 65q31 37 67 47t140 10q83 0 121.5 -11t66.5 -42t37 -66t9 -116v-224q0 -72 -18.5 -109t-70.5 -69q56 -29 72.5 -64.5t16.5 -127.5v-344q0 -101 -45.5 -149t-139.5 -48h-65v182h4q23 0 32 15.5t9 56.5v326q0 38 -8.5 51t-36.5 14v180q31 1 38 14 t7 66v215q0 68 -35 68q-37 0 -37 -68v-1120h-205z" />
<glyph unicode="&#xe0;" horiz-adv-x="565" d="M39 201v207q0 71 16.5 101t77.5 71l178 118v207q0 23 -10 37t-25 14t-25.5 -12.5t-10.5 -32.5v-180h-201v201q0 52 9 82t32 55q26 28 61 37.5t109 9.5q104 0 147 -8t68 -33q31 -31 39 -69.5t8 -153.5v-852h-201v47q-54 -51 -116 -51q-65 0 -111 43q-28 26 -36.5 58 t-8.5 104zM111 1386h198l53 -210h-159zM240 211q0 -57 34 -57q37 0 37 53v307q-54 -33 -62.5 -46t-8.5 -58v-199z" />
<glyph unicode="&#xe1;" horiz-adv-x="565" d="M39 201v207q0 71 16.5 101t77.5 71l178 118v207q0 23 -10 37t-25 14t-25.5 -12.5t-10.5 -32.5v-180h-201v201q0 52 9 82t32 55q26 28 61 37.5t109 9.5q104 0 147 -8t68 -33q31 -31 39 -69.5t8 -153.5v-852h-201v47q-54 -51 -116 -51q-65 0 -111 43q-28 26 -36.5 58 t-8.5 104zM193 1176l55 210h196l-92 -210h-159zM240 211q0 -57 34 -57q37 0 37 53v307q-54 -33 -62.5 -46t-8.5 -58v-199z" />
<glyph unicode="&#xe2;" horiz-adv-x="565" d="M39 201v207q0 71 16.5 101t77.5 71l178 118v207q0 23 -10 37t-25 14t-25.5 -12.5t-10.5 -32.5v-180h-201v201q0 52 9 82t32 55q26 28 61 37.5t109 9.5q104 0 147 -8t68 -33q31 -31 39 -69.5t8 -153.5v-852h-201v47q-54 -51 -116 -51q-65 0 -111 43q-28 26 -36.5 58 t-8.5 104zM59 1169l97 224h243l105 -224h-174l-49 125l-48 -125h-174zM240 211q0 -57 34 -57q37 0 37 53v307q-54 -33 -62.5 -46t-8.5 -58v-199z" />
<glyph unicode="&#xe3;" horiz-adv-x="565" d="M39 201v207q0 71 16.5 101t77.5 71l178 118v207q0 23 -10 37t-25 14t-25.5 -12.5t-10.5 -32.5v-180h-201v201q0 52 9 82t32 55q26 28 61 37.5t109 9.5q104 0 147 -8t68 -33q31 -31 39 -69.5t8 -153.5v-852h-201v47q-54 -51 -116 -51q-65 0 -111 43q-28 26 -36.5 58 t-8.5 104zM63 1190v31q0 66 29 103.5t80 37.5q19 0 72.5 -6.5t70.5 -9.5q20 -5 23 -5q17 0 20 31h140l2 -39q3 -58 -28 -94.5t-79 -36.5q-19 0 -133 21l-29 2q-28 3 -28 -35h-140zM240 211q0 -57 34 -57q37 0 37 53v307q-54 -33 -62.5 -46t-8.5 -58v-199z" />
<glyph unicode="&#xe4;" horiz-adv-x="565" d="M39 201v207q0 71 16.5 101t77.5 71l178 118v207q0 23 -10 37t-25 14t-25.5 -12.5t-10.5 -32.5v-180h-201v201q0 52 9 82t32 55q26 28 61 37.5t109 9.5q104 0 147 -8t68 -33q31 -31 39 -69.5t8 -153.5v-852h-201v47q-54 -51 -116 -51q-65 0 -111 43q-28 26 -36.5 58 t-8.5 104zM66 1196v170h178v-170h-178zM240 211q0 -57 34 -57q37 0 37 53v307q-54 -33 -62.5 -46t-8.5 -58v-199zM319 1196v170h179v-170h-179z" />
<glyph unicode="&#xe5;" horiz-adv-x="565" d="M39 201v207q0 71 16.5 101t77.5 71l178 118v207q0 23 -10 37t-25 14t-25.5 -12.5t-10.5 -32.5v-180h-201v201q0 52 9 82t32 55q26 28 61 37.5t109 9.5q104 0 147 -8t68 -33q31 -31 39 -69.5t8 -153.5v-852h-201v47q-54 -51 -116 -51q-65 0 -111 43q-28 26 -36.5 58 t-8.5 104zM119 1339q0 63 47.5 109.5t112.5 46.5q67 0 117 -49t50 -115t-47.5 -115t-113.5 -49t-116 51.5t-50 120.5zM201 1335q0 -34 25 -60t57 -26q33 0 57.5 24.5t24.5 57.5q0 32 -25 57t-59 25q-32 0 -56 -23.5t-24 -54.5zM240 211q0 -57 34 -57q37 0 37 53v307 q-54 -33 -62.5 -46t-8.5 -58v-199z" />
<glyph unicode="&#xe6;" horiz-adv-x="825" d="M39 182v228q0 58 15.5 91t54.5 58l200 129v209q0 57 -35 57q-32 0 -32 -53v-172h-203v191q0 110 43.5 153t153.5 43q86 0 121 -15t57 -61q25 47 55 61.5t106 14.5q60 0 95 -8.5t61 -30.5q32 -26 42.5 -62t10.5 -120v-381h-268v-313q0 -47 31 -47q33 0 33 49v207h206v-220 q0 -60 -9 -90t-34 -55q-26 -28 -61 -38.5t-98 -10.5q-83 0 -115.5 14.5t-54.5 61.5q-26 -46 -57 -61t-101 -15q-124 0 -170.5 40t-46.5 146zM242 203q0 -51 34 -51q33 0 33 49v313l-35 -25q-24 -18 -28 -27.5t-4 -51.5v-207zM516 676h64v225q0 30 -7 42.5t-24 12.5 q-33 0 -33 -51v-229z" />
<glyph unicode="&#xe7;" horiz-adv-x="557" d="M47 174v772q0 91 53 133q26 22 59.5 29.5t102.5 7.5q93 0 133.5 -7.5t67.5 -27.5q31 -25 43 -57t12 -86v-301h-203v270q0 51 -32 51q-33 0 -33 -49v-692q0 -59 35 -59q18 0 24 11.5t6 45.5v242h203v-277q0 -122 -74 -164q-23 -12 -48.5 -16t-82.5 -4q-142 0 -172 12 q-51 22 -72.5 60t-21.5 106zM205 -78h153v-162q0 -60 -36 -88.5t-117 -31.5v71q43 8 43 43v15h-43v153z" />
<glyph unicode="&#xe8;" horiz-adv-x="559" d="M47 180v774q0 99 78 142q36 20 158 20q81 0 115 -6t59 -23q63 -46 63 -145v-430h-268v-309q0 -49 29 -49q32 0 32 47v207h207v-232q0 -49 -8.5 -76t-30.5 -51q-28 -31 -64.5 -42t-111.5 -11q-147 0 -194 27q-34 25 -49 60.5t-15 96.5zM123 1386h199l53 -210h-160z M252 674h61v225q0 30 -6.5 42.5t-23.5 12.5q-31 0 -31 -53v-227z" />
<glyph unicode="&#xe9;" horiz-adv-x="559" d="M47 180v774q0 99 78 142q36 20 158 20q81 0 115 -6t59 -23q63 -46 63 -145v-430h-268v-309q0 -49 29 -49q32 0 32 47v207h207v-232q0 -49 -8.5 -76t-30.5 -51q-28 -31 -64.5 -42t-111.5 -11q-147 0 -194 27q-34 25 -49 60.5t-15 96.5zM199 1176l55 210h197l-93 -210h-159 zM252 674h61v225q0 30 -6.5 42.5t-23.5 12.5q-31 0 -31 -53v-227z" />
<glyph unicode="&#xea;" horiz-adv-x="559" d="M47 180v774q0 99 78 142q36 20 158 20q81 0 115 -6t59 -23q63 -46 63 -145v-430h-268v-309q0 -49 29 -49q32 0 32 47v207h207v-232q0 -49 -8.5 -76t-30.5 -51q-28 -31 -64.5 -42t-111.5 -11q-147 0 -194 27q-34 25 -49 60.5t-15 96.5zM57 1169l97 224h243l105 -224h-174 l-49 125l-48 -125h-174zM252 674h61v225q0 30 -6.5 42.5t-23.5 12.5q-31 0 -31 -53v-227z" />
<glyph unicode="&#xeb;" horiz-adv-x="559" d="M47 180v774q0 99 78 142q36 20 158 20q81 0 115 -6t59 -23q63 -46 63 -145v-430h-268v-309q0 -49 29 -49q32 0 32 47v207h207v-232q0 -49 -8.5 -76t-30.5 -51q-28 -31 -64.5 -42t-111.5 -11q-147 0 -194 27q-34 25 -49 60.5t-15 96.5zM63 1196v170h179v-170h-179z M252 674h61v225q0 30 -6.5 42.5t-23.5 12.5q-31 0 -31 -53v-227zM317 1196v170h179v-170h-179z" />
<glyph unicode="&#xec;" horiz-adv-x="313" d="M-12 1386h198l54 -210h-160zM53 0v1112h207v-1112h-207z" />
<glyph unicode="&#xed;" horiz-adv-x="313" d="M53 0v1112h207v-1112h-207zM82 1176l55 210h197l-92 -210h-160z" />
<glyph unicode="&#xee;" horiz-adv-x="313" d="M-66 1169l97 224h243l105 -224h-174l-49 125l-47 -125h-175zM53 0v1112h207v-1112h-207z" />
<glyph unicode="&#xef;" horiz-adv-x="313" d="M-39 1196v170h160v-170h-160zM53 0v1112h207v-1112h-207zM190 1196v170h160v-170h-160z" />
<glyph unicode="&#xf0;" horiz-adv-x="581" d="M55 190v711q0 66 4.5 96.5t18.5 55.5q15 29 49 47t74 18q39 0 67.5 -15.5t55.5 -51.5v77q0 88 -11 112t-55 30l-123 -121l-51 51l72 70h-101v96h199l119 119l51 -47l-72 -72q62 -2 94.5 -12.5t51.5 -36.5q20 -26 25 -68.5t5 -177.5v-878q0 -67 -12 -102.5t-43 -61.5 q-23 -19 -65 -26t-134 -7q-73 0 -109.5 9t-64.5 34q-26 25 -35.5 56t-9.5 95zM258 209q0 -55 33 -55q19 0 26 12t7 43v686q0 34 -7.5 46.5t-27.5 12.5q-17 0 -24 -12t-7 -41v-692z" />
<glyph unicode="&#xf1;" horiz-adv-x="581" d="M53 0v1112h205v-63q32 38 58.5 52.5t62.5 14.5q78 0 121 -59q17 -23 22.5 -53.5t5.5 -92.5v-911h-204v905q0 53 -35 53q-31 0 -31 -53v-905h-205zM72 1190v31q0 66 28.5 103.5t79.5 37.5q19 0 73 -6.5t71 -9.5q20 -5 22 -5q18 0 21 31h139l2 -39q3 -58 -28 -94.5 t-79 -36.5q-19 0 -133 21l-28 2q-29 3 -29 -35h-139z" />
<glyph unicode="&#xf2;" horiz-adv-x="567" d="M47 190v713q0 75 10 110.5t39 61.5q28 25 67 33t128 8q83 0 118.5 -8.5t63.5 -34.5q30 -28 39.5 -61.5t9.5 -112.5l-2 -709q0 -66 -11.5 -99.5t-43.5 -59.5q-23 -20 -60.5 -27.5t-113.5 -7.5q-86 0 -128.5 9t-68.5 34q-28 26 -37.5 57t-9.5 94zM125 1386h199l53 -210 h-160zM252 209q0 -53 33 -53q17 0 23.5 12.5t6.5 40.5v688q0 32 -7.5 45.5t-24.5 13.5t-24 -13t-7 -44v-690z" />
<glyph unicode="&#xf3;" horiz-adv-x="567" d="M47 190v713q0 75 10 110.5t39 61.5q28 25 67 33t128 8q83 0 118.5 -8.5t63.5 -34.5q30 -28 39.5 -61.5t9.5 -112.5l-2 -709q0 -66 -11.5 -99.5t-43.5 -59.5q-23 -20 -60.5 -27.5t-113.5 -7.5q-86 0 -128.5 9t-68.5 34q-28 26 -37.5 57t-9.5 94zM201 1176l55 210h197 l-93 -210h-159zM252 209q0 -53 33 -53q17 0 23.5 12.5t6.5 40.5v688q0 32 -7.5 45.5t-24.5 13.5t-24 -13t-7 -44v-690z" />
<glyph unicode="&#xf4;" horiz-adv-x="567" d="M47 190v713q0 75 10 110.5t39 61.5q28 25 67 33t128 8q83 0 118.5 -8.5t63.5 -34.5q30 -28 39.5 -61.5t9.5 -112.5l-2 -709q0 -66 -11.5 -99.5t-43.5 -59.5q-23 -20 -60.5 -27.5t-113.5 -7.5q-86 0 -128.5 9t-68.5 34q-28 26 -37.5 57t-9.5 94zM61 1169l97 224h243 l105 -224h-174l-49 125l-47 -125h-175zM252 209q0 -53 33 -53q17 0 23.5 12.5t6.5 40.5v688q0 32 -7.5 45.5t-24.5 13.5t-24 -13t-7 -44v-690z" />
<glyph unicode="&#xf5;" horiz-adv-x="567" d="M47 190v713q0 75 10 110.5t39 61.5q28 25 67 33t128 8q83 0 118.5 -8.5t63.5 -34.5q30 -28 39.5 -61.5t9.5 -112.5l-2 -709q0 -66 -11.5 -99.5t-43.5 -59.5q-23 -20 -60.5 -27.5t-113.5 -7.5q-86 0 -128.5 9t-68.5 34q-28 26 -37.5 57t-9.5 94zM66 1190v31 q0 66 28.5 103.5t79.5 37.5q19 0 72.5 -6.5t70.5 -9.5q20 -5 23 -5q17 0 20 31h140l2 -39q3 -58 -28 -94.5t-79 -36.5q-19 0 -133 21l-29 2q-28 3 -28 -35h-139zM252 209q0 -53 33 -53q17 0 23.5 12.5t6.5 40.5v688q0 32 -7.5 45.5t-24.5 13.5t-24 -13t-7 -44v-690z" />
<glyph unicode="&#xf6;" horiz-adv-x="567" d="M47 190v713q0 75 10 110.5t39 61.5q28 25 67 33t128 8q83 0 118.5 -8.5t63.5 -34.5q30 -28 39.5 -61.5t9.5 -112.5l-2 -709q0 -66 -11.5 -99.5t-43.5 -59.5q-23 -20 -60.5 -27.5t-113.5 -7.5q-86 0 -128.5 9t-68.5 34q-28 26 -37.5 57t-9.5 94zM68 1196v170h178v-170 h-178zM252 209q0 -53 33 -53q17 0 23.5 12.5t6.5 40.5v688q0 32 -7.5 45.5t-24.5 13.5t-24 -13t-7 -44v-690zM322 1196v170h178v-170h-178z" />
<glyph unicode="&#xf7;" d="M37 657v111h952v-111h-952zM418 344q0 40 28 67t68 27q37 0 64.5 -28t27.5 -66t-28 -66t-66 -28t-66 28t-28 66zM418 1079q0 39 28 67t68 28q37 0 64.5 -28.5t27.5 -66.5t-28 -66t-66 -28t-66 28t-28 66z" />
<glyph unicode="&#xf8;" horiz-adv-x="561" d="M-4 -29l51 144q-6 27 -6 82v725q0 114 47 153t182 39q70 0 138 -8l30 80l125 -47l-49 -148v-813q0 -104 -47 -144t-170 -40q-67 0 -143 12l-29 -82zM248 213q0 -38 6.5 -49.5t26.5 -11.5q28 0 28 55v692q0 28 -7 39.5t-26 11.5q-18 0 -23 -10t-5 -45v-682z" />
<glyph unicode="&#xf9;" horiz-adv-x="581" d="M53 188v924h207v-907q0 -53 31 -53q33 0 33 49v911h204v-1112h-204v57q-52 -61 -121 -61q-35 0 -67.5 15t-51.5 40q-31 42 -31 137zM133 1386h199l53 -210h-160z" />
<glyph unicode="&#xfa;" horiz-adv-x="581" d="M53 188v924h207v-907q0 -53 31 -53q33 0 33 49v911h204v-1112h-204v57q-52 -61 -121 -61q-35 0 -67.5 15t-51.5 40q-31 42 -31 137zM203 1176l55 210h197l-93 -210h-159z" />
<glyph unicode="&#xfb;" horiz-adv-x="581" d="M53 188v924h207v-907q0 -53 31 -53q33 0 33 49v911h204v-1112h-204v57q-52 -61 -121 -61q-35 0 -67.5 15t-51.5 40q-31 42 -31 137zM68 1169l96 224h244l104 -224h-174l-49 125l-47 -125h-174z" />
<glyph unicode="&#xfc;" horiz-adv-x="581" d="M53 188v924h207v-907q0 -53 31 -53q33 0 33 49v911h204v-1112h-204v57q-52 -61 -121 -61q-35 0 -67.5 15t-51.5 40q-31 42 -31 137zM74 1196v170h178v-170h-178zM328 1196v170h178v-170h-178z" />
<glyph unicode="&#xfd;" horiz-adv-x="491" d="M-33 -104h90q55 0 70.5 12.5t15.5 58.5q0 29 -6 64l-153 1081h217l18 -324q10 -193 17 -456h26v186q0 173 8 289l23 305h215l-162 -1167q-9 -65 -19 -95t-30 -55q-44 -55 -147 -55h-183v156zM158 1176l55 210h197l-93 -210h-159z" />
<glyph unicode="&#xfe;" horiz-adv-x="587" d="M61 -260v1626h205v-315q54 65 123 65q33 0 65 -15.5t50 -41.5q17 -23 24 -58t7 -102v-719q0 -100 -41 -141q-43 -43 -107 -43q-69 0 -121 61v-317h-205zM266 205q0 -29 7 -41t26 -12q31 0 31 53v706q0 23 -9 36.5t-24 13.5q-31 0 -31 -50v-706z" />
<glyph unicode="&#xff;" horiz-adv-x="491" d="M-33 -104h90q55 0 70.5 12.5t15.5 58.5q0 29 -6 64l-153 1081h217l18 -324q10 -193 17 -456h26v186q0 173 8 289l23 305h215l-162 -1167q-9 -65 -19 -95t-30 -55q-44 -55 -147 -55h-183v156zM31 1196v170h178v-170h-178zM285 1196v170h178v-170h-178z" />
<glyph unicode="&#x152;" horiz-adv-x="770" d="M51 240v882q0 89 12 131t46 70q29 26 75 34.5t154 8.5h399v-182h-143v-344h143v-185h-143v-465h143v-190h-424q-100 0 -140.5 9t-72.5 40q-29 29 -39 67t-10 124zM283 250q0 -68 41 -68q38 0 38 68v858q0 44 -7.5 60t-28.5 16q-23 0 -33 -18.5t-10 -61.5v-854z" />
<glyph unicode="&#x153;" horiz-adv-x="829" d="M47 221v699q0 73 14 107.5t52 59.5q28 18 62 23.5t118 5.5q53 0 79 -4.5t50 -19.5q29 15 60.5 19.5t99.5 4.5q111 0 159 -39q29 -26 39.5 -63.5t10.5 -120.5v-379h-269v-315q0 -20 8.5 -32.5t22.5 -12.5q31 0 31 49v205h207v-218q0 -115 -51 -154.5t-181 -39.5 q-60 0 -84.5 3t-54.5 15q-45 -18 -176 -18q-118 0 -164 61q-20 24 -26.5 57.5t-6.5 106.5zM254 207q0 -53 33 -53q28 0 28 51v698q0 51 -30 51q-31 0 -31 -51v-696zM522 676h62v227q0 51 -29 51q-15 0 -24 -13.5t-9 -35.5v-229z" />
<glyph unicode="&#x178;" horiz-adv-x="532" d="M-14 1366h227l27 -244q5 -44 9 -80.5t6.5 -61.5t4 -51t2.5 -38.5t1.5 -34.5t0.5 -27.5v-29.5v-29h23q10 234 24 356l29 240h205l-150 -819v-547h-237v547zM49 1448v170h178v-170h-178zM303 1448v170h178v-170h-178z" />
<glyph unicode="&#x2c6;" d="M289 1169l96 224h244l104 -224h-174l-49 125l-47 -125h-174z" />
<glyph unicode="&#x2dc;" d="M293 1190v31q0 66 28.5 103.5t79.5 37.5q19 0 73 -6.5t71 -9.5q20 -5 22 -5q18 0 21 31h139l2 -39q3 -58 -27.5 -94.5t-78.5 -36.5q-20 0 -134 21l-28 2q-29 3 -29 -35h-139z" />
<glyph unicode="&#x2000;" horiz-adv-x="880" />
<glyph unicode="&#x2001;" horiz-adv-x="1761" />
<glyph unicode="&#x2002;" horiz-adv-x="880" />
<glyph unicode="&#x2003;" horiz-adv-x="1761" />
<glyph unicode="&#x2004;" horiz-adv-x="587" />
<glyph unicode="&#x2005;" horiz-adv-x="440" />
<glyph unicode="&#x2006;" horiz-adv-x="293" />
<glyph unicode="&#x2007;" horiz-adv-x="293" />
<glyph unicode="&#x2008;" horiz-adv-x="220" />
<glyph unicode="&#x2009;" horiz-adv-x="352" />
<glyph unicode="&#x200a;" horiz-adv-x="97" />
<glyph unicode="&#x2010;" horiz-adv-x="247" d="M0 481v189h248v-189h-248z" />
<glyph unicode="&#x2011;" horiz-adv-x="247" d="M0 481v189h248v-189h-248z" />
<glyph unicode="&#x2012;" horiz-adv-x="247" d="M0 481v189h248v-189h-248z" />
<glyph unicode="&#x2013;" horiz-adv-x="581" d="M53 481v189h475v-189h-475z" />
<glyph unicode="&#x2014;" horiz-adv-x="743" d="M0 481v189h743v-189h-743z" />
<glyph unicode="&#x2018;" horiz-adv-x="337" d="M88 952v199q0 116 36.5 165.5t125.5 53.5v-96q-32 -3 -44.5 -23t-12.5 -67v-15h57v-217h-162z" />
<glyph unicode="&#x2019;" horiz-adv-x="337" d="M88 950v97q32 1 44.5 20.5t12.5 67.5v14h-57v217h162v-199q0 -115 -36.5 -163.5t-125.5 -53.5z" />
<glyph unicode="&#x201a;" horiz-adv-x="335" d="M82 0v240h172v-252q0 -96 -40.5 -141.5t-131.5 -49.5v103q32 8 46.5 25.5t14.5 51.5v23h-61z" />
<glyph unicode="&#x201c;" horiz-adv-x="581" d="M88 956v197q0 114 37 163t125 54v-96q-35 -4 -46 -21t-11 -67v-15h57v-215h-162zM330 956v193q0 114 36.5 163.5t125.5 55.5v-94q-60 -9 -60 -84q0 -11 2 -19h58v-215h-162z" />
<glyph unicode="&#x201d;" horiz-adv-x="581" d="M88 954v95q31 6 45 26t14 58q0 10 -2 18h-57v215h162v-192q0 -114 -36.5 -164t-125.5 -56zM330 952v97q35 4 46 21t11 67v14h-57v215h162v-197q0 -114 -37 -164t-125 -53z" />
<glyph unicode="&#x201e;" horiz-adv-x="581" d="M88 0v215h162v-192q0 -114 -36.5 -164t-125.5 -56v95q31 6 45 26t14 58q0 10 -2 18h-57zM330 0v215h162v-197q0 -114 -37 -164t-125 -53v97q35 4 46 21t11 67v14h-57z" />
<glyph unicode="&#x2022;" horiz-adv-x="1366" d="M401 692q0 120 83.5 202.5t205.5 82.5q114 0 196.5 -83.5t82.5 -199.5q0 -118 -83 -201t-200 -83t-201 82.5t-84 199.5z" />
<glyph unicode="&#x2026;" horiz-adv-x="1009" d="M82 0v236h172v-236h-172zM418 0v236h172v-236h-172zM756 0v236h172v-236h-172z" />
<glyph unicode="&#x202f;" horiz-adv-x="352" />
<glyph unicode="&#x2039;" horiz-adv-x="374" d="M55 575l72 469h160l-74 -469l74 -473h-160z" />
<glyph unicode="&#x203a;" horiz-adv-x="372" d="M88 102l72 469l-72 473h158l71 -473l-71 -469h-158z" />
<glyph unicode="&#x205f;" horiz-adv-x="440" />
<glyph unicode="&#x20ac;" horiz-adv-x="761" d="M51 653l51 154h64v313q0 88 11.5 130t45.5 73q29 28 72 37.5t141 9.5q102 0 147 -9.5t74 -37.5q30 -30 42 -68.5t12 -105.5v-258h-232v225q0 42 -8 57t-31 15t-32 -15.5t-9 -54.5v-311h226l-54 -154h-172v-403q0 -37 8.5 -52.5t30.5 -15.5q41 0 41 66v321h232v-366 q0 -118 -57.5 -162.5t-211.5 -44.5q-109 0 -162.5 16.5t-82.5 59.5q-19 26 -25 60.5t-6 111.5v409h-115z" />
<glyph unicode="&#x2122;" horiz-adv-x="940" d="M14 1241v125h320v-125h-80v-694h-160v694h-80zM395 547v819h213l21 -213q12 -118 12 -240q0 117 14 250l21 203h217v-819h-141v276q0 31 3 79.5t3 113.5v18l-2 -18l-4 -76q0 -15 -11 -86l-41 -307h-112l-41 287q-16 116 -19 200q0 -18 4.5 -109t4.5 -120v-258h-142z" />
<glyph unicode="&#xe000;" horiz-adv-x="1116" d="M0 0v1116h1116v-1116h-1116z" />
</font>
</defs>
</svg>
